Shivaay 2016 Hindi [New.Source] DvdScr x264 Aac 5.1

Shivaay 2016 Hindi [New.Source] DvdScr x264 Aac 5.1

Shivaay 2016 Hindi [New.Source] DvdScr x264 Aac 5.1

Source                      : OWN
Format                      : Matroska
Format version              : Version 4 / Version 2
File size                   : 1.52 GiB
Duration                    : 2 h 39 min
Overall bit rate mode       : Variable
Overall bit rate            : 1 363 kb/s
Encoded date                : UTC 2016-11-05 14:36:34
Writing application         : mkvmerge v8.1.0 (‘Psychedelic Postcard’) 32bit
Writing library             : libebml v1.3.1 + libmatroska v1.4.2

Video
ID                          : 1
Format                      : AVC
Format/Info                 : Advanced Video Codec
Format profile              : Baseline@L3
Format settings, CABAC      : No
Format settings, ReFrames   : 2 frames
Format settings, GOP        : M=1, N=24
Codec ID                    : V_MPEG4/ISO/AVC
Duration                    : 2 h 39 min
Bit rate mode               : Variable
Bit rate                    : 1 250 kb/s
Width                       : 720 pixels
Height                      : 320 pixels
Display aspect ratio        : 2.25:1
Frame rate mode             : Constant
Frame rate                  : 25.000 FPS
Color space                 : YUV
Chroma subsampling          : 4:2:0
Bit depth                   : 8 bits
Scan type                   : Progressive
Bits/(Pixel*Frame)          : 0.217
Stream size                 : 1.39 GiB (91%)
Default                     : Yes
Forced                      : No

Audio
ID                          : 2
Format                      : AAC
Format/Info                 : Advanced Audio Codec
Format profile              : LC
Codec ID                    : A_AAC
Duration                    : 2 h 39 min
Bit rate                    : 117 kb/s
Channel(s)                  : 6 channels
Channel positions           : Front: L C R, Side: L R, LFE
Sampling rate               : 44.1 kHz
Frame rate                  : 43.066 FPS (1024 spf)
Compression mode            : Lossy
Stream size                 : 134 MiB (9%)
Language                    : Hindi
Default                     : Yes
Forced                      : Yes

ScreenShots

Shivaay 2016 Hindi [New.Source] DvdScr x264 Aac 5.1

Shivaay 2016 Hindi [New.Source] DvdScr x264 Aac 5.1

Shivaay 2016 Hindi [New.Source] DvdScr x264 Aac 5.1

Sample Link

Download Links

Usercloud

Indishare

Bdupload

Leave a Reply

Lost Password

%d bloggers like this: